Verified torrent On the Road (2012) DVDRip H264-AC3-AVI Fr NL Subs


    Seeders : 1      Leechers : 0

Hash :80856D631D35441AAFCE98DCFCADEE8C1253BB1B
Added :1 Year+ by NLUPPERVerified torrent uploader in Movies
Size :1.38 GB
Stream :Watch Full Movie Online @ Movie4u
Share :


On the Road (2012) DVDRip H264-AC3-AVI Fr NL Subs
Download Direct And Anonymously







Warning! Do not Download Torrents Without a VPN!
Your IP Address is 185.162.9.168.   And Location is Netherlands, Naaldwijk
Your Internet Provider and Government can track your torrent Activity!  Hide your IP ADDRESS with a VPN!
We Strongly Recommend Using Best Cheapest VPN to Anonymize your Torrenting.

Note :

Please Update (Trackers Info) Before Start Torrents Downloading to See Updated Seeders And Leechers for Batter Download Speed.

Trackers List

Tracker NameLast CheckStatusSeedersLeechers




Torrent File Content (15 files)


On the Road (2012) DVDRip H264-AC3-AVI Fr NL Subs
     On the Road (2012) DVDRip H264-AC3-AVI Fr NL Subs.avi -
1.37 GB

     On the Road (2012) DVDRip H264-AC3-AVI Fr NL Subs.idx -
226.79 KB

     On the Road (2012) DVDRip H264-AC3-AVI Fr NL Subs.sub -
19.37 MB

     On the Road (2012) DVDRip H264-AC3-AVI Fr NL Subs.nfo -
3.28 KB

     Torrent downloaded from AanMeHoelaJa Torrents on BTScene.eu.txt -
71 bytes

     Torrent downloaded from AhaShare.com.txt -
58 bytes

     Torrent Downloaded From BTScene.eu.txt -
45 bytes

     Torrent downloaded from Demonoid.me.txt -
46 bytes

     Torrent Downloaded From ExtraTorrent.com.txt -
353 bytes

     Torrent downloaded from KAT.ph.txt -
41 bytes

     Torrent Downloaded from limetorrent.txt -
50 bytes

     Torrent downloaded from Rarbg.com.txt -
33 bytes

     Torrent downloaded from silvertorrent.org.txt -
86 bytes

     Torrent downloaded from thepiratebay.se.txt -
50 bytes

     tracked_by_h33t_com.txt -
23 bytes



Description



On the Road (2012) DVDRip H264-AC3-AVI Fr NL Subs
.
http://i.imgur.com/lHaZk.jpg

.
R 124 min - Adventure | Drama - 24 May 2012 (Netherlands)
.
http://www.imdb.com/title/tt0337692/
.
http://www.moviemeter.nl/film/72074
.
PLOT
.
Young writer Sal Paradise has his life shaken by the arrival of free-spirited
Dean Moriarty and his girl, Marylou. As they travel across the country,
they encounter a mix of people who each impact their journey indelibly.
.
Source: Retail DVD9
Format: AVI
Audio: English 5.1
Subtitles: Dutch,French
.
General
.
Video
ID : 0
Format : AVC
Format/Info : Advanced Video Codec
Format profile : [email protected]
Format settings, CABAC : Yes
Format settings, ReFrames : 10 frames
Codec ID : H264
Duration : 2h 13mn
Bit rate : 1 001 Kbps
Width : 712 pixels
Height : 296 pixels
Display aspect ratio : 2.40:1
Frame rate : 25.000 fps
Color space : YUV
Chroma subsampling : 4:2:0
Bit depth : 8 bits
Scan type : Progressive
Bits/(Pixel*Frame) : 0.190
Stream size : 959 MiB (69%)
Writing library : x264 core 93 r1538bm bd72d46
Encoding settings : cabac=1 / ref=10 / deblock=1:-2:-1 / analyse=0x3:0x133 / me=umh / subme=6 / psy=1 / psy_rd=1.00:0.00 / mixed_ref=1 / me_range=16 / chroma_me=1 / trellis=2 / 8x8dct=1 / cqm=0 / deadzone=21,11 / fast_pskip=0 / chroma_qp_offset=-2 / threads=8 / sliced_threads=0 / nr=0 / decimate=1 / interlaced=0 / constrained_intra=0 / bframes=16 / b_pyramid=2 / b_adapt=1 / b_bias=0 / direct=1 / wpredb=1 / wpredp=2 / keyint=250 / keyint_min=25 / scenecut=40 / intra_refresh=0 / rc_lookahead=40 / rc=2pass / mbtree=1 / bitrate=1001 / ratetol=1.0 / qcomp=0.60 / qpmin=10 / qpmax=51 / qpstep=4 / cplxblur=20.0 / qblur=0.5 / ip_ratio=1.40 / aq=1:1.00

Audio
ID : 1
Format : AC-3
Format/Info : Audio Coding 3
Mode extension : CM (complete main)
Format settings, Endianness : Big
Codec ID : 2000
Duration : 2h 13mn
Bit rate mode : Constant
Bit rate : 448 Kbps
Channel(s) : 6 channels
Channel positions : Front: L C R, Side: L R, LFE
Sampling rate : 48.0 KHz
Bit depth : 16 bits
Compression mode : Lossy
Stream size : 429 MiB (31%)
Alignment : Split accross interleaves
Interleave, duration : 40 ms (1.00 video frame)
Interleave, preload duration : 500 ms
.
Enjoy

Related torrents

Torrent NameAddedSizeSeedLeechHealth
1 Year+ - in Movies699 MB10
1 Year+ - in Movies700 MB10
1 Year+ - in Movies709.73 MB10
1 Year+ - in Movies1.37 GB01,615
1 Year+ - in Movies1.95 GB00

Note :

Feel free to post any comments about this torrent, including links to Subtitle, samples, screenshots, or any other relevant information. Please Dont Download anything from Comments, And Links to Streaming Sites like Watch Online On the Road (2012) DVDRip H264-AC3-AVI Fr NL Subs Full Movie, Fmovies, 123Movies, Putlocker, Netflix, etc.

Comments (0 Comments)




Please login or create a FREE account to post comments

Latest Searches

Sitemap